Как правильно дрочить? (2010) SATRip :: Porno Torrent
Loading...
Error


Как правильно дрочить? (2010) SATRip

Ответить на тему

  

Статистика раздачи
Размер:  169 MB   |    Зарегистрирован:  5 лет 7 месяцев   |    Скачан:  359 раз
   
 
Автор Сообщение

Korpiklaani

Стаж: 5 лет 8 месяцев

Сообщений: 21



   


post 01-Апр-2011 21:43

  Quote





Я знаю, я видел эту девушку где-то ... - Бренди медленно раздевается, как она смотрит на беспомощных рабов под ногами. Раб с завязанными глазами, запястья связаны за спиной, и ноги разводятся с распорка. Она душит рабов лицо киски и мудак Она начинается с растирания и сжимая ОГРОМНЫЙ спермы заполнены яички. Тогда ручонками изучить каждый сантиметр члена BIG. мастурбирует Бренди является выдающейся, лучшее, что я видел в течение длительного времени. Она особенно любила ОГРОМНЫЙ лысый. Она прослеживается во всем его и прижимаю ее сцепление на валу чтобы голова выпуклость еще больше. постоянная гладил Бренди вызвало ПЕТУХ освободить NICE густой сливочный нагрузка спермы. Ее мимика бесценны. Красивая брюнетка продолжали доить провел длинный пенис после оргазма.
Format : Windows Media

File size : 169 MiB
Duration : 14mn 40s
Overall bit rate mode : Variable
Overall bit rate : 1 608 Kbps
Maximum Overall bit rate : 2 558 Kbps
Encoded date : UTC 2010-07-04 19:05:13.765

Video
ID : 2
Format : VC-1
Format profile : MP@ML
Codec ID : WMV3
Codec ID/Info : Windows Media Video 9
Codec ID/Hint : WMV3
Description of the codec : Windows Media Video 9 - Professional
Duration : 14mn 40s
Bit rate mode : Variable
Bit rate : 1 500 Kbps
Width : 720 pixels
Height : 480 pixels
Display aspect ratio : 3:2
Frame rate : 29.970 fps
Standard : NTSC
Bit depth : 8 bits
Scan type : Progressive
Bits/(Pixel*Frame) : 0.145
Stream size : 158 MiB (93%)
NumberOfFrames : 26389

Audio
ID : 1
Format : WMA
Format version : Version 2
Codec ID : 161
Codec ID/Info : Windows Media Audio
Description of the codec : Windows Media Audio 9.2 - 96 kbps, 48 kHz, stereo 2-pass VBR
Duration : 14mn 40s
Bit rate mode : Variable
Bit rate : 96.0 Kbps
Channel(s) : 2 channels
Sampling rate : 48.0 KHz
Bit depth : 16 bits
Stream size : 10.1 MiB (6%)
[porno-torrent.biz].t215.torrent
Трекер:   [ 2011-04-07 09:18 ]

Скачать .torrent

13 KB

Статус: проверено (by admin at 2011-04-07 09:18)
Скачан: 359 раз
Размер: 169 MB

Скачать Magnet

Оценка:  5 (Голосов: 4)
Поблагодарили: 25  Спасибо   (список)
 




Последний раз редактировалось: admin (2011-04-07 09:18), всего редактировалось 1 раз
Вне форума Profile PM
Показать сообщения:    
Ответить на тему

  

Текущее время: 04-Дек 16:43

Часовой пояс: GMT + 3



Вы не можете начинать темы
Вы не можете отвечать на сообщения
Вы не можете редактировать свои сообщения
Вы не можете удалять свои сообщения
Вы не можете голосовать в опросах
Вы не можете прикреплять файлы к сообщениям
Вы можете скачивать файлы